Watch Online Taylor Swift The 1989 World Tour (2015)

taylor_swift_1989_world_tour_apple_music
Video
ID : 2
Format : AVC
Format/Info : Advanced Video Codec
Format profile : [email protected]
Format settings, CABAC : Yes
Format settings, ReFrames : 5 frames
Codec ID : avc1
Codec ID/Info : Advanced Video Coding
Duration : 2h 11mn
Bit rate mode : Variable
Bit rate : 5 177 Kbps
Width : 1 440 pixels
Height : 1 080 pixels
Display aspect ratio : 16:9
Frame rate mode : Constant
Frame rate : 29.970 fps
Color space : YUV
Chroma subsampling : 4:2:0
Bit depth : 8 bits
Scan type : Progressive
Bits/(Pixel*Frame) : 0.111
Stream size : 4.77 GiB (91%)
Language : English
Encoded date : UTC 2015-12-20 11:00:36
Tagged date : UTC 2015-12-20 11:08:42
Color primaries : BT.709
Transfer characteristics : BT.709
Matrix coefficients : BT.709
Audio #1
ID : 1
Format : AAC
Format/Info : Advanced Audio Codec
Format profile : LC
Codec ID : 40
Duration : 2h 11mn
Bit rate mode : Variable
Bit rate : 126 Kbps
Maximum bit rate : 215 Kbps
Channel count : 2 channels
Channel positions : Front: L R
Sampling rate : 48.0 KHz
Compression mode : Lossy
Stream size : 119 MiB (2%)
Language : English
Encoded date : UTC 2015-12-20 11:00:36
Tagged date : UTC 2015-12-20 11:08:42Audio #2
ID : 3
Format : AC-3
Format/Info : Audio Coding 3
Mode extension : CM (complete main)
Format settings, Endianness : Big
Codec ID : ac-3
Duration : 2h 11mn
Bit rate mode : Constant
Bit rate : 384 Kbps
Channel count : 6 channels
Channel positions : Front: L C R, Side: L R, LFE
Sampling rate : 48.0 KHz
Bit depth : 16 bits
Compression mode : Lossy
Stream size : 362 MiB (7%)
Language : English
Encoded date : UTC 2015-12-20 11:00:36
Tagged date : UTC 2015-12-20 11:08:42

Watch Online Taylor Swift The 1989 World Tour (2015)

Download

You may also like...

Leave a Reply

Your email address will not be published. Required fields are marked *