Rihanna – Needed Me (1080p MP4)

In ANTI, Needed Me comes at 7th song. The song (audio) itself for me not so impressing, but still quite worth to watch/listen. Needed Me music video is Not Safe For Work (NSFW). Yeah, just like another her previous music videos….  there’s plenty of nudity and violence crammed into three minutes. Just so you know, this song comes as 3rd single after Work and Kiss It Better.

“Needed Me” really does feel like something of a Spring Breakers sequel: it’s full of mask-wearing gunmen, motorcycles ripping through shabby neighborhoods, and dimly lit strip club scenes. Rihanna’s clearly in charge, whether she’s strutting through the club with a pistol like she owns the place or lounging around a beachfront condo in some kind of sheer gown. She heads into the back room and takes down her adversary with a few shots to the head, and it’s a chilling, bloody scene. “Work” is still riding high on top of the Billboard charts, but “Needed Me” is one of the best songs on ANTI, and this video might be compelling enough to help Rihanna take her own place at the Hot 100’s peak.

rihanna-needed-me-mp4-1080p

General
Complete name : Rihanna – Needed Me.mp4
Format : MPEG-4
Format profile : Base Media
Codec ID : isom
File size : 60.0 MiB
Duration : 3mn 14s
Overall bit rate : 2 594 Kbps
Movie name : Needed Me
Album : ANTI
Track name/Position : 7
Performer : Rihanna
Genre : Pop
Recorded date : 2016

Video
ID : 1
Format : AVC
Format/Info : Advanced Video Codec
Format profile : [email protected]
Format settings, CABAC : Yes
Format settings, ReFrames : 2 frames
Format settings, GOP : M=3, N=8
Codec ID : avc1
Codec ID/Info : Advanced Video Coding
Duration : 3mn 13s
Bit rate mode : Variable
Bit rate : 2 461 Kbps
Width : 1 920 pixels
Height : 1 080 pixels
Display aspect ratio : 16:9
Frame rate mode : Constant
Frame rate : 23.976 fps
Color space : YUV
Chroma subsampling : 4:2:0
Bit depth : 8 bits
Scan type : Progressive
Bits/(Pixel*Frame) : 0.050
Stream size : 56.9 MiB (95%)

Audio
ID : 2
Format : AAC
Format/Info : Advanced Audio Codec
Format profile : LC
Codec ID : 40
Duration : 3mn 14s
Bit rate mode : Constant
Bit rate : 126 Kbps
Channel(s) : 2 channels
Channel positions : Front: L R
Sampling rate : 44.1 KHz
Compression mode : Lossy
Stream size : 2.91 MiB (5%)

Download / Watch online stream

You may also like...

Leave a Reply

Your email address will not be published. Required fields are marked *